<?xml version="1.0" standalone="no"?>
<!DOCTYPE svg PUBLIC "-//W3C//DTD SVG 1.1//EN" "http://www.w3.org/Graphics/SVG/1.1/DTD/svg11.dtd" >
<svg xmlns="http://www.w3.org/2000/svg">
<metadata>Generated by IcoMoon</metadata>
<defs>
<font id="icomoon" horiz-adv-x="1024">
<font-face units-per-em="1024" ascent="960" descent="-64" />
<missing-glyph horiz-adv-x="1024" />
<glyph unicode="&#x20;" horiz-adv-x="512" d="" />
<glyph unicode="&#xe900;" glyph-name="svg_em-icon-back-arrow" d="M497.778 369.778l-79.644 68.267h217.6c5.689 0 11.378 5.689 11.378 11.378 0 7.111-5.689 11.378-11.378 11.378h-214.756l82.489 65.422c5.689 4.267 5.689 11.378 1.422 17.067s-11.378 5.689-15.644 1.422c-73.956-58.311-109.511-86.756-109.511-88.178l-1.422-1.422v-1.422s0-1.422-1.422-1.422v-9.956c0-1.422 0-1.422 1.422-2.844 0 0 0-1.422 1.422-1.422 0 0 0-1.422 1.422-1.422l103.822-88.178c2.844-1.422 4.267-2.844 7.111-2.844s7.111 1.422 8.533 4.267c2.844 7.111 2.844 15.644-2.844 19.911z" />
<glyph unicode="&#xe901;" glyph-name="svg_em-icon-backtotop" d="M433.778 462.222l68.267 79.644v-217.6c0-5.689 5.689-11.378 11.378-11.378 7.111 0 11.378 5.689 11.378 11.378v214.756l65.422-82.489c4.267-5.689 11.378-5.689 17.067-1.422s5.689 11.378 1.422 15.644c-58.311 73.956-86.756 109.511-88.178 109.511l-1.422 1.422h-1.422s-1.422 0-1.422 1.422h-9.956c-1.422 0-1.422 0-2.844-1.422 0 0-1.422 0-1.422-1.422 0 0-1.422 0-1.422-1.422l-85.333-102.4c-1.422-2.844-2.844-4.267-2.844-7.111s1.422-7.111 4.267-8.533c4.267-4.267 12.8-4.267 17.067 1.422zM230.4 166.4v563.2h563.2v-563.2h-563.2zM253.156 189.156h517.689v517.689h-517.689v-517.689z" />
<glyph unicode="&#xe902;" glyph-name="svg_em-icon-beleuchtung" d="M796.444 608.711c-1.422 160.711-128 287.289-284.444 287.289-159.289 0-284.444-128-284.444-287.289 0-68.267 35.556-129.422 69.689-184.889s66.844-105.244 66.844-149.333c0-41.244 1.422-85.333 1.422-120.889 0-24.178 7.111-45.511 21.333-59.733 9.956-9.956 24.178-17.067 41.244-19.911 4.267-41.244 41.244-73.956 83.911-73.956s78.222 32.711 83.911 73.956c17.067 2.844 32.711 8.533 44.089 19.911 14.222 14.222 21.333 35.556 21.333 59.733 0 42.667-1.422 83.911-1.422 120.889 0 44.089 32.711 93.867 66.844 149.333s69.689 116.622 69.689 184.889zM570.311 489.244c-9.956-65.422-18.489-139.378-29.867-203.378h-58.311c-8.533 64-18.489 135.111-28.444 199.111 21.333 5.689 45.511 11.378 58.311 21.333 8.533-11.378 39.822-15.644 58.311-17.067zM484.978 574.578c2.844 17.067 4.267 25.6 27.022 25.6 19.911 0 22.756-12.8 27.022-25.6-4.267-15.644-17.067-29.867-27.022-41.244-12.8 12.8-22.756 24.178-27.022 41.244zM637.156 263.111l1.422-73.956h-253.156l-1.422 73.956c81.067 1.422 172.089 0 253.156 0zM512 21.333c-31.289 0-56.889 22.756-62.578 51.2h123.733c-5.689-29.867-29.867-51.2-61.156-51.2zM622.933 108.089c-9.956-9.956-24.178-14.222-45.511-14.222h-132.267c-21.333 0-36.978 5.689-45.511 14.222-14.222 21.333-14.222 35.556-15.644 59.733h253.156c1.422-19.911-1.422-46.933-14.222-59.733zM638.578 284.444h-76.8c9.956 65.422 19.911 137.956 28.444 201.956 12.8-1.422 28.444 1.422 39.822 4.267 11.378 4.267 15.644 12.8 18.489 22.756 0 11.378 0 29.867-15.644 44.089-17.067 11.378-48.356 11.378-55.467-18.489-1.422-9.956-2.844-21.333-4.267-31.289-17.067 1.422-34.133 2.844-45.511 9.956 8.533 8.533 17.067 18.489 22.756 28.444 5.689 8.533 9.956 17.067 9.956 27.022-2.844 27.022-18.489 46.933-48.356 46.933-32.711 0-46.933-24.178-48.356-46.933 0-9.956 4.267-18.489 9.956-27.022 7.111-11.378 15.644-19.911 22.756-28.444-14.222-8.533-29.867-12.8-45.511-14.222-1.422 11.378-2.844 25.6-4.267 35.556-9.956 18.489-31.289 28.444-55.467 18.489-15.644-14.222-15.644-31.289-15.644-44.089 0-9.956 7.111-18.489 15.644-22.756 14.222-7.111 28.444-8.533 42.667-7.111 9.956-62.578 19.911-135.111 28.444-199.111h-79.644c-4.267 49.778-35.556 99.556-68.267 150.756-34.133 55.467-66.844 112.356-66.844 173.511 0 150.756 115.2 265.956 264.533 265.956 145.067 0 263.111-119.467 263.111-265.956 0-61.156-32.711-118.044-66.844-173.511-32.711-51.2-65.422-100.978-69.689-150.756zM594.489 506.311c1.422 9.956 2.844 21.333 4.267 31.289 7.111 9.956 14.222 5.689 19.911 4.267 9.956-9.956 9.956-15.644 9.956-28.444-9.956-5.689-24.178-5.689-34.133-7.111zM430.933 504.889c-14.222-1.422-25.6 4.267-34.133 9.956 0 11.378-1.422 18.489 8.533 28.444 9.956 5.689 14.222-1.422 19.911-5.689 1.422-9.956 4.267-22.756 5.689-32.711z" />
<glyph unicode="&#xe903;" glyph-name="svg_em-icon-cart" d="M416.711 275.911c-35.556 0-64-29.867-64-65.422s28.444-65.422 64-65.422 64 29.867 64 65.422c0 36.978-28.444 65.422-64 65.422zM416.711 166.4c-24.178 0-44.089 19.911-44.089 45.511 0 24.178 19.911 45.511 44.089 45.511s44.089-19.911 44.089-45.511c0-25.6-19.911-45.511-44.089-45.511zM817.778 667.022c-1.422 2.844-4.267 4.267-7.111 4.267h-531.911l-14.222 71.111c-1.422 4.267-5.689 8.533-9.956 8.533h-92.444c-5.689 0-9.956-4.267-9.956-9.956s4.267-9.956 9.956-9.956h83.911l82.489-398.222c-1.422-2.844 0-5.689 1.422-8.533s5.689-4.267 8.533-4.267h386.844c5.689 0 9.956 4.267 9.956 9.956s-4.267 9.956-9.956 9.956h-376.889l-15.644 73.956h423.822c4.267 0 8.533 2.844 9.956 8.533l54.044 237.511c0 1.422 0 5.689-2.844 7.111zM283.022 651.378h147.911l15.644-98.133h-142.222l-21.333 98.133zM328.533 435.2l-19.911 98.133h142.222l15.644-98.133h-137.956zM593.067 435.2h-105.244l-15.644 98.133h137.956l-17.067-98.133zM467.911 553.244l-15.644 98.133h176.356l-15.644-98.133h-145.067zM748.089 435.2h-133.689l15.644 98.133h140.8l-22.756-98.133zM775.111 553.244h-142.222l15.644 98.133h147.911l-21.333-98.133zM648.533 275.911c-35.556 0-64-29.867-64-65.422s28.444-65.422 64-65.422 64 29.867 64 65.422c0 36.978-28.444 65.422-64 65.422zM648.533 166.4c-24.178 0-44.089 19.911-44.089 45.511 0 24.178 19.911 45.511 44.089 45.511s44.089-19.911 44.089-45.511c0-25.6-19.911-45.511-44.089-45.511z" />
<glyph unicode="&#xe904;" glyph-name="svg_em-icon-download-circle" d="M590.222 442.311l-68.267-79.644v217.6c0 5.689-5.689 11.378-11.378 11.378-7.111 0-11.378-5.689-11.378-11.378v-214.756l-65.422 82.489c-4.267 5.689-11.378 5.689-17.067 1.422s-5.689-11.378-1.422-15.644c58.311-73.956 86.756-109.511 88.178-109.511l1.422-1.422h1.422s1.422 0 1.422-1.422h9.956c1.422 0 1.422 0 2.844 1.422 0 0 1.422 0 1.422 1.422 0 0 1.422 0 1.422 1.422l88.178 103.822c1.422 2.844 2.844 4.267 2.844 7.111s-1.422 7.111-4.267 8.533c-7.111 2.844-15.644 2.844-19.911-2.844zM512 135.111c-173.511 0-312.889 140.8-312.889 312.889s140.8 312.889 312.889 312.889 312.889-140.8 312.889-312.889-139.378-312.889-312.889-312.889zM512 739.556c-160.711 0-291.556-130.844-291.556-291.556s130.844-291.556 291.556-291.556 291.556 130.844 291.556 291.556-130.844 291.556-291.556 291.556z" />
<glyph unicode="&#xe905;" glyph-name="svg_em-icon-download" d="M760.889 500.622c-7.111 0-12.8-5.689-12.8-12.8v-194.844c0-4.267-2.844-7.111-7.111-7.111h-457.956c-4.267 0-7.111 2.844-7.111 7.111v194.844c0 7.111-5.689 12.8-12.8 12.8s-12.8-5.689-12.8-12.8v-194.844c0-18.489 14.222-32.711 32.711-32.711h456.533c18.489 0 32.711 15.644 32.711 32.711v194.844c1.422 7.111-4.267 12.8-11.378 12.8zM590.222 487.822l-68.267-79.644v217.6c0 5.689-5.689 11.378-11.378 11.378-7.111 0-11.378-5.689-11.378-11.378v-214.756l-65.422 82.489c-4.267 5.689-11.378 5.689-17.067 1.422s-5.689-11.378-1.422-15.644c58.311-73.956 86.756-109.511 88.178-109.511l1.422-1.422h1.422s1.422 0 1.422-1.422h9.956c1.422 0 1.422 0 2.844 1.422 0 0 1.422 0 1.422 1.422 0 0 1.422 0 1.422 1.422l88.178 103.822c1.422 2.844 2.844 4.267 2.844 7.111s-1.422 7.111-4.267 8.533c-7.111 2.844-15.644 1.422-19.911-2.844z" />
<glyph unicode="&#xe906;" glyph-name="svg_em-icon-draehte-kabel" d="M204.8 644.267c-7.111 0-12.8-5.689-12.8-12.8v-122.311c0-88.178 65.422-160.711 153.6-170.667h7.111v-100.978c0-76.8 62.578-139.378 139.378-139.378s139.378 62.578 139.378 139.378v110.933c0 64 51.2 115.2 115.2 115.2h73.956c7.111 0 11.378 5.689 11.378 12.8s-5.689 12.8-11.378 12.8h-73.956c-76.8 0-139.378-62.578-139.378-139.378v-110.933c0-64-51.2-115.2-115.2-115.2s-115.2 51.2-115.2 115.2v100.978l7.111 1.422c86.756 9.956 152.178 82.489 152.178 170.667v122.311c0 7.111-5.689 12.8-12.8 12.8h-73.956v142.222c0 7.111-5.689 12.8-12.8 12.8s-12.8-5.689-12.8-12.8v-142.222h-123.733v142.222c0 7.111-5.689 12.8-12.8 12.8s-11.378-5.689-11.378-12.8v-142.222h-71.111zM364.089 362.667c-81.067 0-147.911 65.422-147.911 147.911v109.511h294.4v-109.511c0-82.489-65.422-147.911-146.489-147.911z" />
<glyph unicode="&#xe907;" glyph-name="svg_em-icon-event" d="M718.222 691.2h-65.422v17.067c0 7.111-5.689 12.8-12.8 12.8s-12.8-5.689-12.8-12.8v-17.067h-230.4v17.067c0 7.111-5.689 12.8-12.8 12.8s-12.8-5.689-12.8-12.8v-17.067h-65.422c-28.444 0-52.622-24.178-52.622-52.622v-412.444c0-28.444 24.178-52.622 52.622-52.622h412.444c28.444 0 52.622 24.178 52.622 52.622v412.444c0 29.867-24.178 52.622-52.622 52.622zM305.778 665.6h65.422v-9.956c-17.067-5.689-28.444-21.333-28.444-39.822 0-22.756 18.489-41.244 41.244-41.244s41.244 18.489 41.244 41.244c0 18.489-12.8 34.133-28.444 39.822v9.956h230.4v-9.956c-17.067-5.689-28.444-21.333-28.444-39.822 0-22.756 18.489-41.244 41.244-41.244s41.244 18.489 41.244 41.244c0 18.489-12.8 34.133-28.444 39.822v9.956h65.422c15.644 0 27.022-12.8 27.022-27.022v-73.956h-466.489v73.956c0 15.644 11.378 27.022 27.022 27.022zM384 632.889c8.533 0 15.644-7.111 15.644-15.644s-7.111-15.644-15.644-15.644c-8.533 0-15.644 7.111-15.644 15.644s7.111 15.644 15.644 15.644zM640 632.889c8.533 0 15.644-7.111 15.644-15.644s-7.111-15.644-15.644-15.644c-8.533 0-15.644 7.111-15.644 15.644s7.111 15.644 15.644 15.644zM718.222 199.111h-412.444c-15.644 0-27.022 12.8-27.022 27.022v312.889h466.489v-312.889c0-14.222-11.378-27.022-27.022-27.022z" />
<glyph unicode="&#xe908;" glyph-name="svg_em-icon-facebook" d="M540.444 234.667h-91.022v184.889h-62.578v88.178h62.578v45.511c0 64 38.4 103.822 100.978 103.822 27.022 0 49.778-1.422 56.889-2.844l7.111-1.422v-79.644h-46.933c-24.178 0-27.022-8.533-27.022-27.022v-38.4h72.533l-11.378-88.178h-61.156v-184.889zM465.067 251.733h58.311v184.889h62.578l7.111 55.467h-71.111v54.044c0 19.911 5.689 44.089 44.089 44.089h29.867v48.356c-9.956 1.422-28.444 1.422-46.933 1.422-52.622 0-85.333-32.711-85.333-86.756v-61.156h-62.578v-55.467h62.578v-184.889zM512 135.111c-173.511 0-312.889 140.8-312.889 312.889s140.8 312.889 312.889 312.889 312.889-140.8 312.889-312.889-139.378-312.889-312.889-312.889zM512 739.556c-160.711 0-291.556-130.844-291.556-291.556s130.844-291.556 291.556-291.556 291.556 130.844 291.556 291.556-130.844 291.556-291.556 291.556z" />
<glyph unicode="&#xe909;" glyph-name="svg_em-icon-google-plus" d="M512 135.111c-173.511 0-312.889 140.8-312.889 312.889s140.8 312.889 312.889 312.889 312.889-140.8 312.889-312.889-139.378-312.889-312.889-312.889zM512 739.556c-160.711 0-291.556-130.844-291.556-291.556s130.844-291.556 291.556-291.556 291.556 130.844 291.556 291.556-130.844 291.556-291.556 291.556zM479.289 311.467c-44.089 0-72.533 21.333-72.533 49.778 0 29.867 27.022 39.822 35.556 42.667 17.067 5.689 39.822 7.111 42.667 7.111h9.956c31.289-22.756 45.511-34.133 45.511-55.467 0-25.6-21.333-44.089-61.156-44.089zM479.289 477.867c-35.556 0-51.2 45.511-51.2 73.956 0 11.378 1.422 21.333 8.533 29.867s18.489 14.222 28.444 14.222c34.133 0 52.622-46.933 52.622-75.378 0-7.111-1.422-21.333-9.956-29.867-7.111-8.533-18.489-12.8-28.444-12.8zM567.467 372.622c0 28.444-17.067 42.667-34.133 58.311l-14.222 11.378c-4.267 4.267-11.378 8.533-11.378 17.067s5.689 14.222 11.378 19.911c17.067 14.222 34.133 28.444 34.133 58.311 0 31.289-19.911 48.356-29.867 55.467h25.6l27.022 14.222h-85.333c-22.756 0-49.778-2.844-73.956-22.756-17.067-15.644-27.022-36.978-27.022-55.467 0-32.711 24.178-65.422 68.267-65.422 4.267 0 8.533 0 12.8 1.422 0-2.844-1.422-7.111-1.422-14.222 0-12.8 7.111-21.333 12.8-28.444-18.489-1.422-52.622-2.844-78.222-18.489-24.178-14.222-31.289-35.556-31.289-49.778 0-29.867 28.444-59.733 88.178-59.733 69.689 0 106.667 38.4 106.667 78.222zM571.733 452.267h44.089v-44.089h22.756v44.089h44.089v22.756h-44.089v44.089h-22.756v-44.089h-44.089z" />
<glyph unicode="&#xe90a;" glyph-name="svg_em-icon-lieferfrist" d="M356.978 453.689c0 5.689-4.267 9.956-9.956 9.956h-219.022c-5.689 0-9.956-4.267-9.956-9.956s4.267-9.956 9.956-9.956h219.022c5.689 0 9.956 4.267 9.956 9.956zM356.978 533.333c0 5.689-4.267 9.956-9.956 9.956h-258.844c-5.689 0-9.956-4.267-9.956-9.956s4.267-9.956 9.956-9.956h258.844c5.689 0 9.956 4.267 9.956 9.956zM947.2 472.178l-156.444 58.311-108.089 164.978c-1.422 2.844-5.689 4.267-8.533 4.267h-506.311c-5.689 0-9.956-4.267-9.956-9.956s4.267-9.956 9.956-9.956h502.044l106.667-163.556c1.422-1.422 2.844-2.844 5.689-4.267l152.178-56.889v-210.489h-79.644c0 44.089-35.556 79.644-79.644 79.644s-79.644-35.556-79.644-79.644h-278.756c0 44.089-35.556 79.644-79.644 79.644s-79.644-35.556-79.644-79.644h-79.644v129.422c0 5.689-4.267 9.956-9.956 9.956s-9.956-4.267-9.956-9.956v-139.378c0-5.689 4.267-9.956 9.956-9.956h92.444c8.533-34.133 39.822-59.733 76.8-59.733s68.267 25.6 76.8 59.733h284.444c8.533-34.133 39.822-59.733 76.8-59.733s68.267 25.6 76.8 59.733h92.444c5.689 0 9.956 4.267 9.956 9.956v227.556c0 5.689-2.844 8.533-7.111 9.956zM337.067 186.311c-32.711 0-59.733 27.022-59.733 59.733s27.022 59.733 59.733 59.733c32.711 0 59.733-27.022 59.733-59.733s-27.022-59.733-59.733-59.733zM775.111 186.311c-32.711 0-59.733 27.022-59.733 59.733s27.022 59.733 59.733 59.733c32.711 0 59.733-27.022 59.733-59.733s-27.022-59.733-59.733-59.733zM356.978 611.556c0 5.689-4.267 9.956-9.956 9.956h-278.756c-5.689 0-9.956-4.267-9.956-9.956s4.267-9.956 9.956-9.956h278.756c5.689 0 9.956 5.689 9.956 9.956z" />
<glyph unicode="&#xe90b;" glyph-name="svg_em-icon-linkedin" d="M512 135.111c-173.511 0-312.889 140.8-312.889 312.889s140.8 312.889 312.889 312.889 312.889-140.8 312.889-312.889-139.378-312.889-312.889-312.889zM512 739.556c-160.711 0-291.556-130.844-291.556-291.556s130.844-291.556 291.556-291.556 291.556 130.844 291.556 291.556-130.844 291.556-291.556 291.556zM681.244 298.667h-82.489v109.511c0 31.289-2.844 44.089-24.178 44.089s-28.444-11.378-28.444-42.667v-110.933h-82.489v224.711h81.067v-12.8c12.8 9.956 29.867 17.067 51.2 17.067 75.378 0 86.756-54.044 86.756-108.089v-120.889zM617.244 318.578h44.089v102.4c0 54.044-11.378 88.178-66.844 88.178-27.022 0-45.511-15.644-51.2-28.444l-2.844-4.267h-15.644l-1.422 9.956v18.489h-41.244v-186.311h44.089v92.444c0 15.644 0 62.578 48.356 62.578 42.667 0 42.667-41.244 42.667-64v-91.022zM442.311 298.667h-82.489v224.711h82.489v-224.711zM378.311 318.578h44.089v186.311h-44.089v-186.311zM401.067 531.911c-25.6 0-46.933 21.333-46.933 46.933s21.333 46.933 46.933 46.933c25.6 0 46.933-21.333 46.933-46.933s-21.333-46.933-46.933-46.933zM401.067 605.867c-15.644 0-27.022-12.8-27.022-27.022 0-15.644 12.8-27.022 27.022-27.022 15.644 0 27.022 12.8 27.022 27.022 0 15.644-12.8 27.022-27.022 27.022z" />
<glyph unicode="&#xe90c;" glyph-name="svg_em-icon-location" d="M512 768c62.578 0 115.2-21.333 159.289-65.422s65.422-96.711 65.422-159.289c0-31.289-7.111-66.844-22.756-106.667s-34.133-78.222-56.889-112.356c-22.756-35.556-44.089-68.267-65.422-98.133s-39.822-55.467-55.467-72.533l-24.178-25.6c-5.689 7.111-14.222 15.644-24.178 28.444s-28.444 34.133-54.044 69.689c-25.6 34.133-48.356 68.267-68.267 100.978s-36.978 69.689-54.044 110.933-24.178 76.8-24.178 108.089c0 62.578 21.333 115.2 65.422 159.289s96.711 62.578 159.289 62.578zM512 465.067c22.756 0 41.244 7.111 56.889 22.756s22.756 34.133 22.756 56.889-7.111 41.244-22.756 56.889-34.133 22.756-56.889 22.756-41.244-7.111-56.889-22.756-22.756-34.133-22.756-56.889 7.111-41.244 22.756-56.889 34.133-22.756 56.889-22.756z" />
<glyph unicode="&#xe90d;" glyph-name="svg_em-icon-login" d="M459.378 696.889c0-7.111 5.689-12.8 12.8-12.8h194.844c4.267 0 7.111-2.844 7.111-7.111v-456.533c0-4.267-2.844-7.111-7.111-7.111h-194.844c-7.111 0-12.8-5.689-12.8-12.8s5.689-12.8 12.8-12.8h194.844c18.489 0 32.711 14.222 32.711 32.711v456.533c0 18.489-15.644 32.711-32.711 32.711h-194.844c-7.111 0-12.8-5.689-12.8-12.8zM472.178 526.222l79.644-68.267h-217.6c-5.689 0-11.378-5.689-11.378-11.378 0-7.111 5.689-11.378 11.378-11.378h214.756l-82.489-65.422c-5.689-4.267-5.689-11.378-1.422-17.067s11.378-5.689 15.644-1.422c73.956 58.311 109.511 86.756 109.511 88.178l1.422 1.422v1.422s0 1.422 1.422 1.422v9.956c0 1.422 0 1.422-1.422 2.844 0 0 0 1.422-1.422 1.422 0 0 0 1.422-1.422 1.422l-103.822 88.178c-2.844 1.422-4.267 2.844-7.111 2.844s-7.111-1.422-8.533-4.267c-2.844-7.111-1.422-15.644 2.844-19.911z" />
<glyph unicode="&#xe90e;" glyph-name="svg_em-icon-logout" d="M459.378 696.889c0-7.111 5.689-12.8 12.8-12.8h194.844c4.267 0 7.111-2.844 7.111-7.111v-456.533c0-4.267-2.844-7.111-7.111-7.111h-194.844c-7.111 0-12.8-5.689-12.8-12.8s5.689-12.8 12.8-12.8h194.844c18.489 0 32.711 14.222 32.711 32.711v456.533c0 18.489-15.644 32.711-32.711 32.711h-194.844c-7.111 0-12.8-5.689-12.8-12.8zM445.156 369.778l-79.644 68.267h217.6c5.689 0 11.378 5.689 11.378 11.378 0 7.111-5.689 11.378-11.378 11.378h-214.756l82.489 65.422c5.689 4.267 5.689 11.378 1.422 17.067s-11.378 5.689-15.644 1.422c-73.956-58.311-109.511-86.756-109.511-88.178l-1.422-1.422v-1.422s0-1.422-1.422-1.422v-9.956c0-1.422 0-1.422 1.422-2.844 0 0 0-1.422 1.422-1.422 0 0 0-1.422 1.422-1.422l103.822-88.178c2.844-1.422 4.267-2.844 7.111-2.844s7.111 1.422 8.533 4.267c2.844 7.111 2.844 15.644-2.844 19.911z" />
<glyph unicode="&#xe90f;" glyph-name="svg_em-icon-menu" d="M213.333 694.044h597.333v-98.133h-597.333zM213.333 497.778h597.333v-98.133h-597.333zM213.333 300.089h597.333v-98.133h-597.333z" />
<glyph unicode="&#xe910;" glyph-name="svg_em-icon-more" d="M341.333 504.889c15.644 0 28.444-5.689 39.822-17.067s17.067-24.178 17.067-39.822-5.689-28.444-17.067-39.822-24.178-17.067-39.822-17.067c-15.644 0-28.444 5.689-39.822 17.067s-17.067 24.178-17.067 39.822 5.689 28.444 17.067 39.822 24.178 17.067 39.822 17.067zM682.667 504.889c15.644 0 28.444-5.689 39.822-17.067s17.067-24.178 17.067-39.822-5.689-28.444-17.067-39.822-24.178-17.067-39.822-17.067-28.444 5.689-39.822 17.067-17.067 24.178-17.067 39.822 5.689 28.444 17.067 39.822 24.178 17.067 39.822 17.067zM512 504.889c15.644 0 28.444-5.689 39.822-17.067s17.067-24.178 17.067-39.822-5.689-28.444-17.067-39.822-24.178-17.067-39.822-17.067-28.444 5.689-39.822 17.067-17.067 24.178-17.067 39.822 5.689 28.444 17.067 39.822 24.178 17.067 39.822 17.067z" />
<glyph unicode="&#xe911;" glyph-name="svg_em-icon-neue-energien" d="M365.511 521.956h213.333c19.911 0 35.556 15.644 35.556 35.556v129.422c0 19.911-15.644 35.556-35.556 35.556h-213.333c-19.911 0-35.556-15.644-35.556-35.556v-129.422c0-19.911 15.644-35.556 35.556-35.556zM349.867 686.933c0 8.533 7.111 15.644 15.644 15.644h213.333c8.533 0 15.644-7.111 15.644-15.644v-129.422c0-8.533-7.111-15.644-15.644-15.644h-213.333c-8.533 0-15.644 7.111-15.644 15.644v129.422zM857.6 645.689h-21.333l-1.422 1.422v52.622h-19.911v-52.622l-1.422-1.422h-49.778l-1.422 1.422v52.622h-19.911v-52.622l-1.422-1.422h-12.8c-5.689 0-9.956-4.267-9.956-9.956v-51.2c0-22.756 12.8-68.267 64-73.956l1.422-1.422v-203.378c0-5.689-1.422-55.467-55.467-55.467h-46.933l-1.422 1.422v533.333c0 59.733-48.356 73.956-73.956 73.956h-260.267c-59.733 0-73.956-48.356-73.956-73.956v-675.556l-1.422-1.422h-56.889v-71.111h524.8v71.111h-56.889l-1.422 1.422v119.467l1.422 1.422h46.933c59.733 0 73.956 48.356 73.956 73.956v204.8l1.422 1.422c49.778 5.689 64 51.2 64 73.956v51.2c0 5.689-4.267 9.956-9.956 9.956zM291.556 785.067c0 5.689 1.422 55.467 55.467 55.467h258.844c5.689 0 55.467-1.422 55.467-55.467v-675.556l-1.422-1.422h-366.933l-1.422 1.422v675.556zM716.8 88.178l1.422-31.289-1.422-1.422h-482.133l-1.422 1.422v29.867l1.422 1.422h482.133zM847.644 584.533c0-5.689-1.422-55.467-55.467-55.467-52.622 0-55.467 49.778-55.467 55.467v39.822l1.422 1.422h106.667l1.422-1.422v-39.822zM399.644 658.489h152.178v-19.911h-152.178zM399.644 610.133h152.178v-19.911h-152.178zM469.333 292.978l1.422 2.844h44.089c4.267 0 7.111 2.844 8.533 5.689 1.422 4.267 0 8.533-2.844 11.378l-110.933 110.933 1.422 2.844h81.067v19.911h-106.667c-5.689 0-9.956-4.267-9.956-9.956v-106.667h19.911v79.644l2.844 1.422 91.022-91.022-1.422-2.844h-44.089c-4.267 0-7.111-2.844-8.533-5.689-1.422-4.267 0-8.533 2.844-11.378l122.311-122.311c1.422-1.422 4.267-2.844 7.111-2.844s5.689 1.422 7.111 2.844c1.422 1.422 2.844 4.267 2.844 7.111s-1.422 5.689-2.844 7.111l-105.244 100.978z" />
<glyph unicode="&#xe912;" glyph-name="svg_em-icon-reading-time" d="M877.511 462.222c-7.111 78.222-72.533 137.956-152.178 137.956-62.578 0-119.467-39.822-142.222-98.133-17.067 22.756-42.667 35.556-71.111 35.556s-54.044-12.8-71.111-35.556c-22.756 58.311-79.644 98.133-142.222 98.133-79.644 0-145.067-59.733-152.178-137.956h-28.444v-28.444h27.022c7.111-78.222 72.533-137.956 152.178-137.956 83.911 0 152.178 68.267 152.178 152.178 0 34.133 27.022 61.156 61.156 61.156s61.156-27.022 61.156-61.156c0-83.911 68.267-152.178 152.178-152.178 79.644 0 145.067 59.733 152.178 137.956h27.022v28.444h-25.6zM850.489 448c0-68.267-55.467-123.733-123.733-123.733s-123.733 55.467-123.733 123.733 55.467 123.733 123.733 123.733 123.733-55.467 123.733-123.733zM422.4 448c0-68.267-55.467-123.733-123.733-123.733s-123.733 55.467-123.733 123.733c0 32.711 12.8 64 36.978 88.178 22.756 22.756 54.044 36.978 88.178 36.978 66.844-1.422 122.311-56.889 122.311-125.156z" />
<glyph unicode="&#xe913;" glyph-name="svg_em-icon-rohre-kanaele" d="M807.822 544.711h-716.8c-4.267 0-7.111 2.844-7.111 7.111v62.578c0 4.267 2.844 7.111 7.111 7.111h679.822c2.844 0 4.267-1.422 5.689-2.844l36.978-62.578c1.422-2.844 1.422-4.267 0-7.111 0-2.844-2.844-4.267-5.689-4.267zM98.133 558.933h696.889l-28.444 48.356h-668.444v-48.356zM932.978 274.489h-841.956c-4.267 0-7.111 2.844-7.111 7.111v62.578c0 4.267 2.844 7.111 7.111 7.111h804.978c2.844 0 4.267-1.422 5.689-2.844l36.978-62.578c1.422-2.844 1.422-4.267 0-7.111 0-2.844-2.844-4.267-5.689-4.267zM98.133 288.711h822.044l-28.444 48.356h-793.6v-48.356zM732.444 409.6h-641.422c-4.267 0-7.111 2.844-7.111 7.111v62.578c0 4.267 2.844 7.111 7.111 7.111h604.444c2.844 0 4.267-1.422 5.689-2.844l36.978-62.578c1.422-2.844 1.422-4.267 0-7.111s-2.844-4.267-5.689-4.267zM98.133 423.822h621.511l-28.444 48.356h-593.067v-48.356z" />
<glyph unicode="&#xe914;" glyph-name="svg_em-icon-search" d="M644.267 368.356l174.933-174.933-52.622-52.622-174.933 174.933v28.444l-9.956 9.956c-41.244-36.978-91.022-54.044-147.911-54.044-64 0-118.044 21.333-162.133 65.422s-66.844 98.133-66.844 162.133 21.333 116.622 65.422 162.133c44.089 44.089 98.133 66.844 162.133 66.844s118.044-22.756 162.133-66.844c44.089-44.089 65.422-98.133 65.422-162.133 0-56.889-18.489-106.667-54.044-147.911l9.956-9.956h28.444zM433.778 368.356c44.089 0 81.067 15.644 112.356 46.933s46.933 68.267 46.933 112.356-15.644 81.067-46.933 112.356-68.267 46.933-112.356 46.933-81.067-15.644-112.356-46.933-46.933-68.267-46.933-112.356 15.644-81.067 46.933-112.356 68.267-46.933 112.356-46.933z" />
<glyph unicode="&#xe915;" glyph-name="svg_em-icon-seat" d="M278.756 384c0 29.867 25.6 55.467 54.044 55.467h356.978c29.867 0 54.044-24.178 54.044-55.467 0-29.867-25.6-55.467-54.044-55.467h-355.556c-29.867 0-55.467 25.6-55.467 55.467zM428.089 803.556h169.244c46.933 0 83.911-36.978 83.911-83.911v-258.844h-337.067v258.844c0 46.933 38.4 83.911 83.911 83.911zM689.778 304.356c42.667 0 78.222 34.133 78.222 78.222 0 39.822-28.444 71.111-65.422 78.222v258.844c0 59.733-46.933 108.089-106.667 108.089h-167.822c-59.733 0-106.667-48.356-106.667-108.089v-260.267c-36.978-5.689-65.422-38.4-65.422-78.222 0-42.667 34.133-78.222 78.222-78.222h166.4v-122.311h-31.289c-61.156 0-112.356-51.2-112.356-113.778h24.178c0 48.356 39.822 89.6 89.6 89.6h31.289v-85.333h24.178v85.333h28.444c48.356 0 89.6-41.244 89.6-89.6h24.178c0 62.578-51.2 113.778-112.356 113.778h-31.289v122.311h164.978z" />
<glyph unicode="&#xe916;" glyph-name="svg_em-icon-send" d="M679.822 625.778l-405.333-162.133c-2.844-1.422-4.267-4.267-4.267-8.533s2.844-7.111 5.689-8.533l172.089-65.422 65.422-170.667c1.422-4.267 4.267-7.111 8.533-7.111s8.533 2.844 8.533 5.689l162.133 405.333c1.422 4.267 0 7.111-2.844 9.956-1.422 2.844-5.689 2.844-9.956 1.422zM540.444 457.956l-14.222 14.222-73.956-72.533-146.489 56.889 361.244 143.644-145.067-361.244-55.467 146.489 73.956 72.533zM512 135.111c-173.511 0-312.889 140.8-312.889 312.889s140.8 312.889 312.889 312.889 312.889-140.8 312.889-312.889-139.378-312.889-312.889-312.889zM512 739.556c-160.711 0-291.556-130.844-291.556-291.556s130.844-291.556 291.556-291.556 291.556 130.844 291.556 291.556-130.844 291.556-291.556 291.556z" />
<glyph unicode="&#xe917;" glyph-name="svg_em-icon-shop" d="M880.356 86.756h-54.044v699.733c0 4.267-2.844 7.111-7.111 7.111h-115.2v22.756c0 4.267-2.844 7.111-7.111 7.111s-7.111-2.844-7.111-7.111v-22.756h-238.933c-4.267 0-7.111-2.844-7.111-7.111v-270.222l-240.356-59.733c-2.844-1.422-5.689-4.267-5.689-7.111v-361.244h-54.044c-4.267 0-7.111-2.844-7.111-7.111s2.844-7.111 7.111-7.111h738.133c4.267 0 7.111 2.844 7.111 7.111 0 2.844-4.267 5.689-8.533 5.689zM442.311 86.756h-230.4v355.556l230.4 58.311v-413.867zM719.644 86.756h-76.8v108.089h76.8v-108.089zM812.089 86.756h-76.8v115.2c0 4.267-2.844 7.111-7.111 7.111h-92.444c-4.267 0-7.111-2.844-7.111-7.111v-115.2h-170.667v691.2h354.133v-691.2zM297.244 348.444h61.156c4.267 0 7.111 2.844 7.111 7.111s-2.844 7.111-7.111 7.111h-61.156c-4.267 0-7.111-2.844-7.111-7.111-1.422-4.267 2.844-7.111 7.111-7.111zM297.244 256h61.156c4.267 0 7.111 2.844 7.111 7.111s-2.844 7.111-7.111 7.111h-61.156c-4.267 0-7.111-2.844-7.111-7.111s2.844-7.111 7.111-7.111zM297.244 163.556h61.156c4.267 0 7.111 2.844 7.111 7.111s-2.844 7.111-7.111 7.111h-61.156c-4.267 0-7.111-2.844-7.111-7.111-1.422-4.267 2.844-7.111 7.111-7.111zM543.289 163.556c4.267 0 7.111 2.844 7.111 7.111v31.289c0 4.267-2.844 7.111-7.111 7.111s-7.111-2.844-7.111-7.111v-31.289c-1.422-4.267 2.844-7.111 7.111-7.111zM543.289 285.867c4.267 0 7.111 2.844 7.111 7.111v31.289c0 4.267-2.844 7.111-7.111 7.111s-7.111-2.844-7.111-7.111v-31.289c-1.422-2.844 2.844-7.111 7.111-7.111zM634.311 285.867c4.267 0 7.111 2.844 7.111 7.111v31.289c0 4.267-2.844 7.111-7.111 7.111s-7.111-2.844-7.111-7.111v-31.289c0-2.844 2.844-7.111 7.111-7.111zM726.756 285.867c4.267 0 7.111 2.844 7.111 7.111v31.289c0 4.267-2.844 7.111-7.111 7.111s-7.111-2.844-7.111-7.111v-31.289c0-2.844 2.844-7.111 7.111-7.111zM543.289 409.6c4.267 0 7.111 2.844 7.111 7.111v31.289c0 4.267-2.844 7.111-7.111 7.111s-7.111-2.844-7.111-7.111v-31.289c-1.422-4.267 2.844-7.111 7.111-7.111zM634.311 409.6c4.267 0 7.111 2.844 7.111 7.111v31.289c0 4.267-2.844 7.111-7.111 7.111s-7.111-2.844-7.111-7.111v-31.289c0-4.267 2.844-7.111 7.111-7.111zM726.756 409.6c4.267 0 7.111 2.844 7.111 7.111v31.289c0 4.267-2.844 7.111-7.111 7.111s-7.111-2.844-7.111-7.111v-31.289c0-4.267 2.844-7.111 7.111-7.111zM543.289 531.911c4.267 0 7.111 2.844 7.111 7.111v31.289c0 4.267-2.844 7.111-7.111 7.111s-7.111-2.844-7.111-7.111v-31.289c-1.422-2.844 2.844-7.111 7.111-7.111zM634.311 531.911c4.267 0 7.111 2.844 7.111 7.111v31.289c0 4.267-2.844 7.111-7.111 7.111s-7.111-2.844-7.111-7.111v-31.289c0-2.844 2.844-7.111 7.111-7.111zM726.756 531.911c4.267 0 7.111 2.844 7.111 7.111v31.289c0 4.267-2.844 7.111-7.111 7.111s-7.111-2.844-7.111-7.111v-31.289c0-2.844 2.844-7.111 7.111-7.111zM543.289 655.644c4.267 0 7.111 2.844 7.111 7.111v31.289c0 4.267-2.844 7.111-7.111 7.111s-7.111-2.844-7.111-7.111v-31.289c-1.422-4.267 2.844-7.111 7.111-7.111zM634.311 655.644c4.267 0 7.111 2.844 7.111 7.111v31.289c0 4.267-2.844 7.111-7.111 7.111s-7.111-2.844-7.111-7.111v-31.289c0-4.267 2.844-7.111 7.111-7.111zM880.356 88.178h-52.622v698.311c0 5.689-4.267 8.533-8.533 8.533h-113.778v21.333c0 5.689-4.267 8.533-8.533 8.533s-8.533-4.267-8.533-8.533v-21.333h-237.511c-5.689 0-8.533-4.267-8.533-8.533v-270.222l-238.933-59.733c-4.267-1.422-7.111-4.267-7.111-8.533v-359.822h-52.622c-5.689 0-8.533-4.267-8.533-8.533s4.267-8.533 8.533-8.533h738.133c5.689 0 8.533 4.267 8.533 8.533s-4.267 8.533-9.956 8.533zM440.889 88.178h-227.556v352.711l227.556 56.889v-409.6zM718.222 88.178h-73.956v105.244h73.956v-105.244zM810.667 88.178h-73.956v113.778c0 5.689-4.267 8.533-8.533 8.533h-92.444c-5.689 0-8.533-4.267-8.533-8.533v-113.778h-167.822v688.356h351.289v-688.356zM297.244 347.022h61.156c5.689 0 8.533 4.267 8.533 8.533s-4.267 8.533-8.533 8.533h-61.156c-5.689 0-8.533-4.267-8.533-8.533s2.844-8.533 8.533-8.533zM297.244 254.578h61.156c5.689 0 8.533 4.267 8.533 8.533s-4.267 8.533-8.533 8.533h-61.156c-5.689 0-8.533-4.267-8.533-8.533s2.844-8.533 8.533-8.533zM297.244 162.133h61.156c5.689 0 8.533 4.267 8.533 8.533s-4.267 8.533-8.533 8.533h-61.156c-5.689 0-8.533-4.267-8.533-8.533s2.844-8.533 8.533-8.533zM543.289 162.133c5.689 0 8.533 4.267 8.533 8.533v31.289c0 5.689-4.267 8.533-8.533 8.533s-8.533-4.267-8.533-8.533v-31.289c-1.422-4.267 2.844-8.533 8.533-8.533zM543.289 284.444c5.689 0 8.533 4.267 8.533 8.533v31.289c0 5.689-4.267 8.533-8.533 8.533s-8.533-4.267-8.533-8.533v-31.289c-1.422-4.267 2.844-8.533 8.533-8.533zM634.311 284.444c5.689 0 8.533 4.267 8.533 8.533v31.289c0 5.689-4.267 8.533-8.533 8.533s-8.533-2.844-8.533-7.111v-31.289c0-5.689 4.267-9.956 8.533-9.956zM726.756 284.444c5.689 0 8.533 4.267 8.533 8.533v31.289c0 5.689-4.267 8.533-8.533 8.533s-8.533-4.267-8.533-8.533v-31.289c0-4.267 4.267-8.533 8.533-8.533zM543.289 408.178c5.689 0 8.533 4.267 8.533 8.533v31.289c0 5.689-4.267 8.533-8.533 8.533s-8.533-4.267-8.533-8.533v-31.289c-1.422-4.267 2.844-8.533 8.533-8.533zM634.311 408.178c5.689 0 8.533 4.267 8.533 8.533v31.289c0 5.689-4.267 8.533-8.533 8.533s-8.533-2.844-8.533-8.533v-31.289c0-4.267 4.267-8.533 8.533-8.533zM726.756 408.178c5.689 0 8.533 4.267 8.533 8.533v31.289c0 5.689-4.267 8.533-8.533 8.533s-8.533-4.267-8.533-8.533v-31.289c0-4.267 4.267-8.533 8.533-8.533zM543.289 530.489c5.689 0 8.533 4.267 8.533 8.533v31.289c0 5.689-4.267 8.533-8.533 8.533s-8.533-4.267-8.533-8.533v-31.289c-1.422-4.267 2.844-8.533 8.533-8.533zM634.311 530.489c5.689 0 8.533 4.267 8.533 8.533v31.289c0 5.689-4.267 8.533-8.533 8.533s-8.533-2.844-8.533-8.533v-31.289c0-4.267 4.267-8.533 8.533-8.533zM726.756 530.489c5.689 0 8.533 4.267 8.533 8.533v31.289c0 5.689-4.267 8.533-8.533 8.533s-8.533-4.267-8.533-8.533v-31.289c0-4.267 4.267-8.533 8.533-8.533zM543.289 654.222c5.689 0 8.533 4.267 8.533 8.533v31.289c0 5.689-4.267 8.533-8.533 8.533s-8.533-4.267-8.533-8.533v-31.289c-1.422-4.267 2.844-8.533 8.533-8.533zM634.311 654.222c5.689 0 8.533 4.267 8.533 8.533v31.289c0 5.689-4.267 8.533-8.533 8.533s-8.533-4.267-8.533-8.533v-31.289c0-4.267 4.267-8.533 8.533-8.533zM726.756 654.222c5.689 0 8.533 4.267 8.533 8.533v31.289c0 5.689-4.267 8.533-8.533 8.533s-8.533-4.267-8.533-8.533v-31.289c0-4.267 4.267-8.533 8.533-8.533zM726.756 655.644c4.267 0 7.111 2.844 7.111 7.111v31.289c0 4.267-2.844 7.111-7.111 7.111s-7.111-2.844-7.111-7.111v-31.289c0-4.267 2.844-7.111 7.111-7.111z" />
<glyph unicode="&#xe918;" glyph-name="svg_em-icon-smart-home" d="M506.311 846.222c-5.689 0-9.956-1.422-14.222-5.689l-351.289-362.667c-5.689-5.689-7.111-14.222-4.267-19.911 2.844-7.111 9.956-11.378 17.067-11.378h71.111v-376.889c0-9.956 8.533-18.489 18.489-18.489h512c8.533 0 18.489 7.111 18.489 19.911v375.467h95.289c7.111 0 14.222 4.267 17.067 11.378s1.422 15.644-4.267 19.911l-109.511 108.089v176.356c0 9.956-8.533 18.489-18.489 18.489h-109.511c-9.956 0-18.489-8.533-18.489-18.489v-27.022l-106.667 106.667c-2.844 2.844-7.111 4.267-12.8 4.267zM749.511 73.956h-499.2v378.311c0 9.956-8.533 18.489-18.489 18.489h-62.578l337.067 347.022 112.356-112.356c4.267-2.844 8.533-5.689 14.222-5.689 9.956 0 18.489 8.533 18.489 18.489v35.556h98.133v-170.667c0-5.689 1.422-9.956 5.689-14.222l100.978-99.556h-88.178c-9.956 0-18.489-8.533-18.489-18.489v-376.889zM506.311 324.267c31.289 0 59.733-15.644 76.8-44.089 1.422-4.267 5.689-7.111 9.956-7.111h1.422c1.422 0 2.844 0 5.689 1.422 5.689 2.844 7.111 11.378 4.267 17.067-19.911 34.133-58.311 56.889-98.133 56.889s-76.8-19.911-96.711-54.044c-2.844-5.689-1.422-12.8 4.267-17.067 5.689-2.844 12.8-1.422 17.067 4.267 15.644 27.022 44.089 42.667 75.378 42.667zM509.156 422.4c-58.311 0-112.356-27.022-147.911-72.533-4.267-5.689-2.844-14.222 2.844-17.067 2.844-1.422 5.689-2.844 7.111-2.844 4.267 0 7.111 1.422 9.956 4.267 31.289 39.822 78.222 62.578 128 62.578s95.289-22.756 126.578-61.156c4.267-5.689 11.378-7.111 17.067-1.422 2.844 1.422 4.267 4.267 4.267 8.533 0 2.844 0 7.111-2.844 9.956-32.711 42.667-86.756 69.689-145.067 69.689zM506.311 465.067c68.267 0 132.267-29.867 176.356-82.489 2.844-2.844 5.689-4.267 9.956-4.267l8.533 4.267c2.844 1.422 4.267 4.267 4.267 7.111s-1.422 7.111-2.844 9.956c-48.356 58.311-119.467 91.022-196.267 91.022-75.378 0-146.489-32.711-193.422-89.6-4.267-4.267-2.844-12.8 1.422-17.067 2.844-1.422 5.689-2.844 8.533-2.844s7.111 1.422 8.533 4.267c44.089 49.778 108.089 79.644 174.933 79.644z" />
<glyph unicode="&#xe919;" glyph-name="svg_em-icon-steuern-schuetzen" d="M585.956 682.667h-384c-5.689 0-11.378-4.267-11.378-11.378s4.267-11.378 11.378-11.378h385.422v11.378s-1.422 7.111-1.422 11.378zM769.422 682.667c-5.689 44.089-42.667 78.222-88.178 78.222s-82.489-34.133-88.178-78.222v-19.911c5.689-44.089 42.667-78.222 88.178-78.222s82.489 34.133 88.178 78.222v9.956s1.422 5.689 0 9.956zM681.244 604.444c-34.133 0-61.156 24.178-66.844 56.889 0 2.844-1.422 7.111-1.422 11.378s0 7.111 1.422 11.378c5.689 32.711 32.711 56.889 66.844 56.889s61.156-24.178 66.844-56.889c0-2.844 1.422-7.111 1.422-11.378s0-7.111-1.422-11.378c-5.689-32.711-32.711-56.889-66.844-56.889zM822.044 682.667h-45.511v-22.756h45.511c5.689 0 11.378 4.267 11.378 11.378s-5.689 11.378-11.378 11.378zM585.956 234.667h-384c-5.689 0-11.378-4.267-11.378-11.378s4.267-11.378 11.378-11.378h385.422v11.378s-1.422 8.533-1.422 11.378zM769.422 234.667c-5.689 44.089-42.667 78.222-88.178 78.222s-82.489-34.133-88.178-78.222v-19.911c5.689-44.089 42.667-78.222 88.178-78.222s82.489 34.133 88.178 78.222v9.956s1.422 7.111 0 9.956zM681.244 156.444c-34.133 0-61.156 24.178-66.844 56.889 0 2.844-1.422 7.111-1.422 11.378s0 7.111 1.422 11.378c5.689 32.711 32.711 56.889 66.844 56.889s61.156-24.178 66.844-56.889c0-2.844 1.422-7.111 1.422-11.378s0-7.111-1.422-11.378c-5.689-31.289-32.711-56.889-66.844-56.889zM822.044 234.667h-45.511v-22.756h45.511c5.689 0 11.378 4.267 11.378 11.378s-5.689 11.378-11.378 11.378zM438.044 436.622h385.422c5.689 0 11.378 4.267 11.378 11.378s-4.267 11.378-11.378 11.378h-385.422v-22.756zM254.578 438.044c5.689-44.089 42.667-78.222 88.178-78.222s82.489 34.133 88.178 78.222v19.911c-5.689 44.089-42.667 78.222-88.178 78.222s-82.489-34.133-88.178-78.222v-9.956s-1.422-7.111 0-9.956zM342.756 516.267c34.133 0 61.156-24.178 66.844-56.889 0-2.844 1.422-7.111 1.422-11.378s0-7.111-1.422-11.378c-5.689-32.711-32.711-56.889-66.844-56.889s-61.156 24.178-66.844 56.889c0 2.844-1.422 7.111-1.422 11.378s0 7.111 1.422 11.378c5.689 31.289 32.711 56.889 66.844 56.889zM201.956 436.622h45.511v22.756h-45.511c-5.689 0-11.378-4.267-11.378-11.378s5.689-11.378 11.378-11.378z" />
<glyph unicode="&#xe91a;" glyph-name="svg_em-icon-telefon" d="M679.822 162.133c-83.911 0-196.267 48.356-298.667 133.689-5.689 4.267-9.956 8.533-15.644 14.222l-5.689 4.267c-5.689 4.267-9.956 9.956-15.644 14.222-125.156 122.311-179.2 261.689-130.844 338.489l4.267 5.689c1.422 2.844 2.844 4.267 5.689 5.689l8.533 9.956c27.022 29.867 68.267 46.933 110.933 44.089 9.956 0 18.489-4.267 25.6-9.956 4.267-4.267 7.111-8.533 9.956-14.222l48.356-126.578c4.267-12.8 1.422-27.022-8.533-36.978l-32.711-34.133c-4.267-4.267-4.267-9.956-2.844-14.222 36.978-72.533 100.978-130.844 182.044-164.978 5.689-2.844 14.222-1.422 18.489 2.844l38.4 29.867c9.956 8.533 25.6 11.378 38.4 7.111l140.8-42.667c5.689-1.422 9.956-4.267 14.222-8.533 7.111-5.689 11.378-14.222 11.378-24.178 2.844-38.4-15.644-76.8-48.356-102.4-2.844-2.844-5.689-4.267-7.111-5.689l-4.267-2.844c-1.422-1.422-4.267-2.844-5.689-4.267-2.844-1.422-4.267-2.844-7.111-4.267-21.333-8.533-45.511-14.222-73.956-14.222zM335.644 712.533c-34.133 0-65.422-14.222-86.756-36.978l-8.533-9.956c-1.422-1.422-2.844-2.844-2.844-4.267l-2.844-4.267c-42.667-66.844 11.378-197.689 128-311.467 4.267-4.267 9.956-8.533 14.222-14.222l5.689-4.267c4.267-4.267 9.956-8.533 15.644-12.8 123.733-108.089 270.222-156.444 344.178-116.622 1.422 1.422 4.267 1.422 5.689 2.844s2.844 1.422 4.267 2.844l4.267 2.844c2.844 1.422 4.267 2.844 7.111 5.689 27.022 19.911 42.667 51.2 39.822 83.911 0 4.267-1.422 7.111-4.267 9.956 0 0-1.422 0-2.844 1.422l-1.422-1.422-4.267 2.844-137.956 42.667c-7.111 1.422-12.8 1.422-18.489-2.844l-36.978-29.867c-11.378-8.533-27.022-11.378-39.822-5.689-85.333 35.556-153.6 96.711-192 174.933-7.111 12.8-4.267 28.444 5.689 38.4l32.711 34.133c4.267 4.267 5.689 9.956 2.844 14.222l-48.356 126.578c-1.422 1.422-2.844 4.267-4.267 5.689-2.844 2.844-7.111 4.267-11.378 4.267-2.844 1.422-4.267 1.422-7.111 1.422z" />
<glyph unicode="&#xe91b;" glyph-name="svg_em-icon-twitter" d="M708.267 553.244c0 2.844-1.422 4.267-4.267 5.689s-7.111 1.422-8.533 0c-2.844-1.422-4.267-1.422-7.111-2.844 4.267 5.689 7.111 12.8 9.956 21.333 1.422 4.267-1.422 9.956-5.689 11.378-2.844 1.422-5.689 0-7.111-1.422-7.111-4.267-14.222-7.111-21.333-9.956-5.689-2.844-11.378-4.267-17.067-5.689-7.111 7.111-14.222 11.378-22.756 15.644-29.867 12.8-66.844 5.689-89.6-17.067-15.644-15.644-24.178-35.556-24.178-56.889v-7.111c-24.178 2.844-46.933 8.533-68.267 19.911-24.178 12.8-45.511 29.867-64 51.2l-2.844 4.267-1.422-1.422h-1.422c-2.844 0-4.267 0-7.111-1.422l-2.844-2.844c-2.844-5.689-5.689-12.8-8.533-19.911-1.422-7.111-2.844-14.222-2.844-21.333 0-12.8 2.844-27.022 9.956-38.4 1.422-1.422 1.422-2.844 2.844-4.267-1.422 1.422-4.267 1.422-5.689 0-2.844 0-4.267-2.844-5.689-4.267s-1.422-2.844-1.422-5.689c0-18.489 7.111-36.978 18.489-51.2l12.8-12.8s-1.422 0-1.422-1.422c-1.422-1.422-2.844-2.844-4.267-5.689v-4.267c5.689-15.644 15.644-29.867 28.444-39.822 7.111-5.689 14.222-9.956 22.756-11.378-7.111-4.267-14.222-7.111-21.333-9.956-14.222-4.267-29.867-7.111-44.089-7.111h-17.067c-2.844 0-4.267 0-7.111-1.422-1.422-1.422-2.844-4.267-2.844-5.689 0-4.267 1.422-7.111 4.267-8.533 17.067-11.378 35.556-19.911 55.467-25.6s39.822-8.533 59.733-8.533c58.311 0 110.933 21.333 150.756 59.733 42.667 42.667 66.844 99.556 66.844 156.444v4.267c5.689 4.267 11.378 9.956 17.067 15.644 7.111 7.111 12.8 14.222 17.067 21.333 1.422 2.844 1.422 4.267 1.422 7.111zM658.489 521.956c-2.844-1.422-4.267-4.267-4.267-8.533v-8.533c0-51.2-21.333-103.822-58.311-140.8-35.556-35.556-83.911-55.467-137.956-55.467-18.489 0-36.978 2.844-55.467 8.533-7.111 1.422-12.8 4.267-19.911 7.111 9.956 1.422 21.333 4.267 31.289 7.111 15.644 5.689 31.289 14.222 44.089 24.178 2.844 1.422 4.267 4.267 4.267 7.111s-1.422 4.267-2.844 7.111l-1.422 1.422v1.422h-5.689c-12.8 0-24.178 4.267-35.556 12.8-7.111 5.689-12.8 11.378-17.067 18.489h9.956c2.844 0 7.111 1.422 9.956 1.422 4.267 0 5.689 2.844 7.111 7.111 0 2.844 0 5.689-2.844 8.533v1.422l-4.267 1.422h-1.422c-14.222 2.844-25.6 11.378-34.133 21.333-5.689 7.111-11.378 17.067-12.8 27.022 1.422 0 1.422 0 2.844-1.422 5.689-1.422 12.8-2.844 18.489-2.844 2.844 0 7.111 1.422 8.533 4.267s1.422 5.689 1.422 8.533l1.422 1.422-4.267 2.844h-1.422c-8.533 5.689-15.644 12.8-19.911 22.756-4.267 8.533-7.111 19.911-7.111 29.867 0 5.689 1.422 11.378 2.844 17.067 0 1.422 0 2.844 1.422 2.844 17.067-18.489 36.978-34.133 59.733-45.511 27.022-14.222 55.467-21.333 85.333-22.756h2.844c2.844 0 5.689 2.844 5.689 5.689h1.422l-1.422 4.267v1.422c0 1.422-1.422 4.267-1.422 5.689v7.111c0 17.067 7.111 32.711 18.489 44.089 18.489 18.489 46.933 22.756 69.689 12.8 8.533-2.844 14.222-8.533 19.911-14.222 1.422-2.844 5.689-4.267 8.533-2.844 7.111 1.422 15.644 4.267 22.756 5.689-4.267-4.267-8.533-8.533-14.222-11.378-2.844-1.422-5.689-5.689-4.267-8.533 0-2.844 1.422-4.267 2.844-5.689s4.267-1.422 7.111-1.422c4.267 0 8.533 1.422 12.8 2.844-2.844-5.689-8.533-9.956-12.8-12.8zM512 135.111c-173.511 0-312.889 140.8-312.889 312.889s140.8 312.889 312.889 312.889 312.889-140.8 312.889-312.889-139.378-312.889-312.889-312.889zM512 739.556c-160.711 0-291.556-130.844-291.556-291.556s130.844-291.556 291.556-291.556 291.556 130.844 291.556 291.556-130.844 291.556-291.556 291.556z" />
<glyph unicode="&#xe91c;" d="M512 135.111c-173.511 0-312.889 140.8-312.889 312.889s140.8 312.889 312.889 312.889 312.889-140.8 312.889-312.889-139.378-312.889-312.889-312.889zM512 739.556c-160.711 0-291.556-130.844-291.556-291.556s130.844-291.556 291.556-291.556 291.556 130.844 291.556 291.556-130.844 291.556-291.556 291.556z" />
<glyph unicode="&#xe91d;" d="M621.511 264.533h-73.956l-81.067 147.911 123.733 219.022h75.378l-125.156-219.022 81.067-147.911zM337.067 374.044l62.578 110.933-42.667 73.956h75.378l42.667-73.956-62.578-110.933h-75.378z" />
<glyph unicode="&#xe91e;" glyph-name="svg-em-icon-promo_em-icon-promo-tag" d="M553.244 125.156c-12.8 0-25.6 5.689-35.556 14.222l-297.244 298.667c-14.222 15.644-21.333 36.978-19.911 58.311l4.267 206.222c0 27.022 21.333 48.356 48.356 48.356l207.644 4.267c27.022 0 51.2-11.378 68.267-31.289l287.289-287.289c9.956-9.956 14.222-21.333 14.222-35.556s-5.689-25.6-14.222-35.556l-227.556-226.133c-8.533-9.956-21.333-14.222-35.556-14.222zM253.156 732.444c-17.067 0-29.867-12.8-29.867-29.867l-4.267-206.222c0-17.067 5.689-32.711 15.644-45.511 1.422-2.844 2.844-4.267 5.689-5.689l291.556-291.556c5.689-5.689 12.8-8.533 21.333-8.533s15.644 2.844 21.333 8.533l226.133 226.133c5.689 5.689 8.533 12.8 8.533 21.333s-2.844 15.644-8.533 21.333l-287.289 287.289c-14.222 17.067-32.711 25.6-54.044 25.6l-206.222-2.844zM301.511 615.822c-9.956 0-19.911 4.267-27.022 11.378-14.222 14.222-14.222 38.4 0 54.044 7.111 7.111 17.067 11.378 27.022 11.378s19.911-4.267 27.022-11.378c14.222-14.222 14.222-38.4 0-54.044-7.111-8.533-17.067-11.378-27.022-11.378zM301.511 671.289c-4.267 0-9.956-1.422-12.8-5.689-7.111-7.111-7.111-18.489 0-25.6 2.844-2.844 8.533-5.689 12.8-5.689s9.956 1.422 12.8 5.689c2.844 2.844 5.689 8.533 5.689 12.8s-1.422 9.956-5.689 12.8c-2.844 4.267-8.533 5.689-12.8 5.689zM546.133 277.333c-12.8 0-22.756 4.267-29.867 11.378-18.489 18.489-14.222 54.044 8.533 76.8 12.8 12.8 29.867 21.333 46.933 21.333 12.8 0 22.756-4.267 29.867-11.378 8.533-8.533 12.8-21.333 11.378-36.978-1.422-14.222-8.533-29.867-19.911-41.244-14.222-12.8-31.289-19.911-46.933-19.911zM570.311 366.933c-11.378 0-22.756-5.689-32.711-15.644-15.644-15.644-19.911-38.4-8.533-49.778 4.267-4.267 9.956-5.689 17.067-5.689 11.378 0 22.756 5.689 32.711 15.644 7.111 7.111 12.8 17.067 14.222 25.6 1.422 9.956 0 18.489-5.689 24.178-4.267 4.267-9.956 5.689-17.067 5.689zM506.311 446.578c-12.8 0-22.756 4.267-29.867 11.378-8.533 8.533-12.8 21.333-11.378 36.978 1.422 14.222 8.533 29.867 19.911 41.244s25.6 18.489 38.4 19.911h7.111c11.378 0 22.756-4.267 31.289-11.378 8.533-8.533 12.8-21.333 11.378-36.978-1.422-14.222-8.533-29.867-19.911-41.244-14.222-12.8-31.289-19.911-46.933-19.911zM530.489 536.178h-4.267c-9.956-1.422-19.911-7.111-28.444-14.222-7.111-7.111-12.8-17.067-14.222-25.6-1.422-9.956 0-18.489 5.689-24.178 4.267-4.267 9.956-5.689 17.067-5.689 11.378 0 22.756 5.689 32.711 15.644 8.533 8.533 12.8 18.489 14.222 28.444 1.422 5.689 1.422 14.222-5.689 21.333-4.267 2.844-9.956 4.267-17.067 4.267zM428.089 392.533c-4.267 0-8.533 4.267-9.956 8.533 0 5.689 2.844 9.956 8.533 11.378l221.867 28.444c5.689 0 9.956-4.267 11.378-8.533 0-2.844 0-5.689-1.422-7.111s-4.267-4.267-7.111-5.689l-223.289-27.022z" />
<glyph unicode="&#xe91f;" glyph-name="svg-em-icon-schalten-stecken-def" d="M-610.133 2057.956c4.267 0 7.111 2.844 7.111 7.111v31.289c0 4.267-2.844 7.111-7.111 7.111s-7.111-2.844-7.111-7.111v-31.289c-1.422-4.267 2.844-7.111 7.111-7.111zM3113.244 682.667h-385.422c-5.689 0-11.378-4.267-11.378-11.378s4.267-11.378 11.378-11.378h385.422v22.756zM3296.711 682.667c-5.689 44.089-42.667 78.222-88.178 78.222s-82.489-34.133-88.178-78.222v-19.911c5.689-44.089 42.667-78.222 88.178-78.222s82.489 34.133 88.178 78.222v9.956s1.422 5.689 0 9.956zM3208.533 604.444c-34.133 0-61.156 24.178-66.844 56.889 0 2.844-1.422 7.111-1.422 11.378s0 7.111 1.422 11.378c5.689 32.711 32.711 56.889 66.844 56.889s61.156-24.178 66.844-56.889c0-2.844 1.422-7.111 1.422-11.378s0-7.111-1.422-11.378c-5.689-32.711-32.711-56.889-66.844-56.889zM3349.333 682.667h-45.511v-22.756h45.511c5.689 0 11.378 4.267 11.378 11.378s-5.689 11.378-11.378 11.378zM3113.244 234.667h-385.422c-5.689 0-11.378-4.267-11.378-11.378s4.267-11.378 11.378-11.378h385.422v22.756zM3296.711 234.667c-5.689 44.089-42.667 78.222-88.178 78.222s-82.489-34.133-88.178-78.222v-19.911c5.689-44.089 42.667-78.222 88.178-78.222s82.489 34.133 88.178 78.222v9.956s1.422 7.111 0 9.956zM3208.533 156.444c-34.133 0-61.156 24.178-66.844 56.889 0 2.844-1.422 7.111-1.422 11.378s0 7.111 1.422 11.378c5.689 32.711 32.711 56.889 66.844 56.889s61.156-24.178 66.844-56.889c0-2.844 1.422-7.111 1.422-11.378s0-7.111-1.422-11.378c-5.689-31.289-32.711-56.889-66.844-56.889zM3349.333 234.667h-45.511v-22.756h45.511c5.689 0 11.378 4.267 11.378 11.378s-5.689 11.378-11.378 11.378zM809.244 765.156h-588.8c-14.222 0-25.6-11.378-25.6-25.6v-588.8c0-14.222 11.378-25.6 25.6-25.6h588.8c14.222 0 25.6 11.378 25.6 25.6v588.8c0 14.222-11.378 25.6-25.6 25.6zM810.667 150.756l-1.422-1.422h-588.8l-1.422 1.422v588.8l1.422 1.422h588.8l1.422-1.422v-588.8zM412.444 425.244c-25.6 0-45.511 19.911-45.511 45.511s19.911 45.511 45.511 45.511 45.511-19.911 45.511-45.511-19.911-45.511-45.511-45.511zM412.444 492.089c-12.8 0-22.756-9.956-22.756-22.756s9.956-21.333 22.756-21.333c12.8 0 22.756 9.956 22.756 22.756s-9.956 21.333-22.756 21.333zM614.4 425.244c-25.6 0-45.511 19.911-45.511 45.511s19.911 45.511 45.511 45.511c25.6 0 45.511-19.911 45.511-45.511s-19.911-45.511-45.511-45.511zM614.4 492.089c-12.8 0-22.756-9.956-22.756-22.756s9.956-22.756 22.756-22.756c12.8 0 22.756 9.956 22.756 22.756s-9.956 22.756-22.756 22.756zM513.422 338.489c-25.6 0-45.511 19.911-45.511 45.511s19.911 45.511 45.511 45.511 45.511-19.911 45.511-45.511c0-25.6-21.333-45.511-45.511-45.511zM513.422 405.333c-12.8 0-22.756-9.956-22.756-22.756s9.956-22.756 22.756-22.756c12.8 0 22.756 9.956 22.756 22.756s-11.378 22.756-22.756 22.756zM423.822 280.178c-2.844 0-5.689 1.422-8.533 2.844l-164.978 152.178c-2.844 2.844-4.267 5.689-4.267 9.956s1.422 7.111 4.267 9.956l166.4 152.178c2.844 1.422 5.689 2.844 8.533 2.844h180.622c2.844 0 5.689-1.422 8.533-2.844l166.4-152.178c2.844-2.844 4.267-5.689 4.267-9.956s-1.422-7.111-4.267-9.956l-167.822-152.178c-2.844-1.422-4.267-2.844-8.533-2.844h-180.622zM277.333 445.156l150.756-137.956h172.089l152.178 139.378-150.756 137.956h-172.089l-152.178-139.378z" />
<glyph unicode="&#xe920;" glyph-name="svg_em-icon-forward-arrow" horiz-adv-x="1820" d="M924.444 523.567l79.644-68.267h-217.6c-5.689 0-11.378-5.689-11.378-11.378 0-7.111 5.689-11.378 11.378-11.378h214.756l-82.489-65.422c-5.689-4.267-5.689-11.378-1.422-17.067s11.378-5.689 15.644-1.422c73.956 58.311 109.511 86.756 109.511 88.178l1.422 1.422v1.422c0 0 0 1.422 1.422 1.422v9.956c0 1.422 0 1.422-1.422 2.844 0 0 0 1.422-1.422 1.422 0 0 0 1.422-1.422 1.422l-103.822 88.178c-2.844 1.422-4.267 2.844-7.111 2.844s-7.111-1.422-8.533-4.267c-2.844-7.111-2.844-15.644 2.844-19.911v0z" />
</font>
</defs>
</svg>
